请选择 进入手机版 | 继续访问电脑版

有推-微信公众号推广-网络推广-论坛推广

 找回密码
 立即注册
搜索
查看: 24|回复: 0

男宠阿尔菲 Alfie.Darling.1975.1080p.BluRay.REMUX.AVC.LPCM.2.0-FGT 18.96GB

[复制链接]

3万

主题

3万

帖子

9万

积分

超级版主

Rank: 8Rank: 8

积分
98448
发表于 2020-12-7 12:13:15 | 显示全部楼层 |阅读模式
帖子完整标题:男宠阿尔菲 Alfie.Darling.1975.1080p.BluRay.REMUX.AVC.LPCM.2.0-FGT 18.96GB

◎译  名 男宠阿尔菲
◎片  名 Alfie Darling
◎年  代 1975
◎产  地 英国
◎类  别 剧情 / 喜剧
◎语  言 英语
◎上映日期 1975
◎IMDb评分  4.5/10 from 204 users
◎IMDb链接  https://www.imdb.com/title/tt0072623
◎豆瓣评分 0/10 from 0 users
◎豆瓣链接 https://movie.douban.com/subject/5054106/
◎片  长 102 分钟
◎导  演 肯·休斯 Ken Hughes
◎编  剧 比尔·诺顿 Bill Naughton
◎主  演 Alan Price
       Jill Townsend
       保罗·科普利 Paul Copley
       琼·柯琳斯 Joan Collins
       希拉·怀特 Sheila White
◎标  签 英国电影 | 英国 | 喜剧 | 剧情
◎简  介  
  Alfie Elkins (Alan Price) returns, up to his old womanizing ways, until he meets his match in a sophisticated Magazine Editor Abby Summers (Jill Townsend). His pursuit is complicated by his encounter with Norma (Sheila White) and the fact that a jealous husband won't let him forget about his time with his wife Fay (Dame Joan Collins).
Video
ID                                       : 1
Format                                   : AVC
Format/Info                              : Advanced Video Codec
Format profile                           : [email protected]
Format settings                          : CABAC / 3 Ref Frames
Format settings, CABAC                   : Yes
Format settings, Reference frames        : 3 frames
Format settings, GOP                     : M=3, N=12
Codec ID                                 : V_MPEG4/ISO/AVC
Duration                                 : 1 h 42 min
Bit rate mode                            : Variable
Bit rate                                 : 24.9 Mb/s
Maximum bit rate                         : 33.0 Mb/s
Width                                    : 1 920 pixels
Height                                   : 1 080 pixels
Display aspect ratio                     : 16:9
Frame rate mode                          : Constant
Frame rate                               : 24.000 FPS
Standard                                 : NTSC
Color space                              : YUV
Chroma subsampling                       : 4:2:0
Bit depth                                : 8 bits
Scan type                                : Progressive
Bits/(Pixel*Frame)                       : 0.501
Stream size                              : 17.8 GiB (94%)
Title                                    : Alfie.Darling.1975.1080p.BluRay.REMUX.AVC.LPCM.2.0-FGT
Language                                 : English
Default                                  : No
Forced                                   : No
Color range                              : Limited
Color primaries                          : BT.709
Transfer characteristics                 : BT.709
Matrix coefficients                      : BT.709
Audio
ID                                       : 2
Format                                   : PCM
Format settings                          : Little / Signed
Codec ID                                 : A_PCM/INT/LIT
Duration                                 : 1 h 42 min
Bit rate mode                            : Constant
Bit rate                                 : 1 536 kb/s
Channel(s)                               : 2 channels
Sampling rate                            : 48.0 kHz
Frame rate                               : 30.000 FPS (1600 SPF)
Bit depth                                : 16 bits
Stream size                              : 1.10 GiB (6%)
Title                                    : Alfie.Darling.1975.1080p.BluRay.REMUX.AVC.LPCM.2.0-FGT
Language                                 : English
Default                                  : Yes
Forced                                   : No
Text
ID                                       : 3
Format                                   : PGS
Muxing mode                              : zlib
Codec ID                                 : S_HDMV/PGS
Codec ID/Info                            : Picture based subtitle format used on BDs/HD-DVDs
Duration                                 : 1 h 41 min
Bit rate                                 : 83.7 kb/s
Count of elements                        : 4318
Stream size                              : 60.6 MiB (0%)
Title                                    : English-PGS
Language                                 : English
Default                                  : Yes
Forced                                   : No
Menu
00:00:00.000                             : en:Chapter 01
00:07:55.083                             : en:Chapter 02
00:17:12.000                             : en:Chapter 03
00:25:48.583                             : en:Chapter 04
00:32:08.250                             : en:Chapter 05
00:41:50.208                             : en:Chapter 06
00:48:44.416                             : en:Chapter 07
00:54:22.625                             : en:Chapter 08
01:04:58.541                             : en:Chapter 09
01:11:12.958                             : en:Chapter 10
01:21:02.250                             : en:Chapter 11
01:32:54.375                             : en:Chapter 12







回复

使用道具 举报

您需要登录后才可以回帖 登录 | 立即注册

本版积分规则

Archiver|手机版|小黑屋|有推

网站地图

GMT+8, 2021-10-27 05:12 , Processed in 0.022989 second(s), 18 queries .

快速回复 返回顶部 返回列表