请选择 进入手机版 | 继续访问电脑版

有推-微信公众号推广-网络推广-论坛推广

 找回密码
 立即注册
搜索
查看: 31|回复: 0

月落大地/月黑惊魂 The.Stalking.Moon.1968.1080p.BluRay.x264-SPECTACLE 10.93GB

[复制链接]

3万

主题

3万

帖子

9万

积分

超级版主

Rank: 8Rank: 8

积分
98448
发表于 2020-12-7 12:13:10 | 显示全部楼层 |阅读模式
帖子完整标题:月落大地/月黑惊魂 The.Stalking.Moon.1968.1080p.BluRay.x264-SPECTACLE 10.93GB

◎译  名 月落大地 / 月黑惊魂
◎片  名 The Stalking Moon
◎年  代 1968
◎产  地 美国
◎类  别 西部
◎语  言 英语
◎上映日期 1968-12-25
◎IMDb评分  6.7/10 from 2075 users
◎IMDb链接  https://www.imdb.com/title/tt0065032
◎豆瓣评分 6.3/10 from 67 users
◎豆瓣链接 https://movie.douban.com/subject/1296057/
◎片  长 109分钟
◎导  演 Robert Mulligan
◎编  剧 Alvin Sargent / Wendell Mayes
◎主  演 Gregory Peck
       Eva Marie Saint
       Robert Forster
◎标  签 美国 | 西部片 | 西部 | Gregory_Peck | 1968 | 1960s | Robert_Mulligan | Eva_Marie_Saint
◎简  介  
  本片描述一位刚退休的侦察兵,由于好心收留了一位曾经被印第安俘虏多年的白人女子及她那混血儿子,于是受到儿子的神秘杀手父亲追踪寻仇。全片三分之二以上的时间,是发生在西部山巅之间的追踪和暗杀。导演罗伯特.马利根扬弃一般西部片惯见的激烈枪战场面,着力以沉缓的镜头运动和富于悬疑色彩的构图来酝酿紧惊险的气氛。但是,由于导演过分着重惊险悬疑的气氛营造,对于剧情的充实,和角色内心世界的刻画就相对地显得简单而浮泛。格利高里.派克扮演老斥侯华纳,演来十分卖力,但表情稍嫌刻板化,不及扮演尼克的罗伯特.弗斯特那么灵活和讨好。
Video
ID                                       : 1
Format                                   : AVC
Format/Info                              : Advanced Video Codec
Format profile                           : [email protected]
Format settings                          : CABAC / 5 Ref Frames
Format settings, CABAC                   : Yes
Format settings, Reference frames        : 5 frames
Codec ID                                 : V_MPEG4/ISO/AVC
Duration                                 : 1 h 49 min
Bit rate                                 : 12.8 Mb/s
Width                                    : 1 920 pixels
Height                                   : 824 pixels
Display aspect ratio                     : 2.35:1
Frame rate mode                          : Constant
Frame rate                               : 23.976 (24000/1001/189150) FPS
Color space                              : YUV
Chroma subsampling                       : 4:2:0
Bit depth                                : 8 bits
Scan type                                : Progressive
Bits/(Pixel*Frame)                       : 0.338
Stream size                              : 9.78 GiB (89%)
Writing library                          : x264 core 159 r2991 1771b55
Encoding settings                        : cabac=1 / ref=5 / deblock=1:-3:-3 / analyse=0x3:0x133 / me=umh / subme=11 / psy=1 / psy_rd=1.00:0.00 / mixed_ref=1 / me_range=64 / chroma_me=1 / trellis=2 / 8x8dct=1 / cqm=0 / deadzone=21,11 / fast_pskip=0 / chroma_qp_offset=-2 / threads=26 / lookahead_threads=4 / sliced_threads=0 / nr=0 / decimate=1 / interlaced=0 / bluray_compat=0 / constrained_intra=0 / bframes=8 / b_pyramid=2 / b_adapt=2 / b_bias=0 / direct=3 / weightb=1 / open_gop=0 / weightp=2 / keyint=240 / keyint_min=23 / scenecut=40 / intra_refresh=0 / rc_lookahead=60 / rc=2pass / mbtree=0 / bitrate=12819 / ratetol=1.0 / qcomp=0.60 / qpmin=0 / qpmax=69 / qpstep=4 / cplxblur=20.0 / qblur=0.5 / vbv_maxrate=50000 / vbv_bufsize=62500 / nal_hrd=none / filler=0 / ip_ratio=1.40 / pb_ratio=1.30 / aq=3:0.65
Default                                  : Yes
Forced                                   : No
Audio
ID                                       : 2
Format                                   : DTS
Format/Info                              : Digital Theater Systems
Codec ID                                 : A_DTS
Duration                                 : 1 h 49 min
Bit rate mode                            : Constant
Bit rate                                 : 1 509 kb/s
Channel(s)                               : 2 channels
Channel layout                           : L R
Sampling rate                            : 48.0 kHz
Frame rate                               : 93.750 FPS (512 SPF)
Bit depth                                : 24 bits
Compression mode                         : Lossy
Stream size                              : 1.15 GiB (11%)
Language                                 : English
Default                                  : Yes
Forced                                   : No
Text #1
ID                                       : 3
Format                                   : UTF-8
Codec ID                                 : S_TEXT/UTF8
Codec ID/Info                            : UTF-8 Plain Text
Duration                                 : 1 h 35 min
Bit rate                                 : 19 b/s
Count of elements                        : 536
Stream size                              : 13.6 KiB (0%)
Language                                 : English
Default                                  : No
Forced                                   : No
Text #2
ID                                       : 4
Format                                   : UTF-8
Codec ID                                 : S_TEXT/UTF8
Codec ID/Info                            : UTF-8 Plain Text
Duration                                 : 1 h 48 min
Bit rate                                 : 20 b/s
Count of elements                        : 714
Stream size                              : 16.4 KiB (0%)
Title                                    : SDH
Language                                 : English
Default                                  : No
Forced                                   : No
Menu
00:00:00.000                             : :Chapter 01
00:02:55.050                             : :Chapter 02
00:04:52.709                             : :Chapter 03
00:08:36.057                             : :Chapter 04
00:11:40.408                             : :Chapter 05
00:15:25.800                             : :Chapter 06
00:18:51.797                             : :Chapter 07
00:22:21.131                             : :Chapter 08
00:25:44.543                             : :Chapter 09
00:28:36.673                             : :Chapter 10
00:31:47.864                             : :Chapter 11
00:36:05.455                             : :Chapter 12
00:40:49.197                             : :Chapter 13
00:43:49.293                             : :Chapter 14
00:47:15.916                             : :Chapter 15
00:50:58.639                             : :Chapter 16
00:54:55.125                             : :Chapter 17
00:58:32.259                             : :Chapter 18
01:01:54.961                             : :Chapter 19
01:05:47.861                             : :Chapter 20
01:08:49.208                             : :Chapter 21
01:12:10.535                             : :Chapter 22
01:16:45.017                             : :Chapter 23
01:21:18.707                             : :Chapter 24
01:24:52.629                             : :Chapter 25
01:29:56.391                             : :Chapter 26
01:33:27.936                             : :Chapter 27
01:37:53.534                             : :Chapter 28
01:41:31.669                             : :Chapter 29
01:45:30.032                             : :Chapter 30
01:48:35.634                             : :Chapter 31



回复

使用道具 举报

您需要登录后才可以回帖 登录 | 立即注册

本版积分规则

Archiver|手机版|小黑屋|有推

网站地图

GMT+8, 2021-10-25 11:38 , Processed in 0.024323 second(s), 18 queries .

快速回复 返回顶部 返回列表