请选择 进入手机版 | 继续访问电脑版

有推-微信公众号推广-网络推广-论坛推广

 找回密码
 立即注册
搜索
查看: 28|回复: 0

逃离比勒陀利亚 Escape.from.Pretoria.2020.LIMITED.1080p.BluRay.x264-DRONES 8.75GB

[复制链接]

3万

主题

3万

帖子

9万

积分

超级版主

Rank: 8Rank: 8

积分
98448
发表于 2020-12-7 12:12:24 | 显示全部楼层 |阅读模式
帖子完整标题:逃离比勒陀利亚 Escape.from.Pretoria.2020.LIMITED.1080p.BluRay.x264-DRONES 8.75GB

◎译  名 逃离比勒陀利亚
◎片  名 Escape from Pretoria
◎年  代 2020
◎产  地 英国 / 澳大利亚
◎类  别 剧情 / 犯罪
◎语  言 英语
◎上映日期 2020-03-06(英国)
◎IMDb评分  6.5/10 from 2485 users
◎IMDb链接  https://www.imdb.com/title/tt5797184
◎豆瓣评分 7.7/10 from 8096 users
◎豆瓣链接 https://movie.douban.com/subject/27046758/
◎片  长 106分钟
◎导  演 弗朗西斯·安南 Francis Annan
◎编  剧 弗朗西斯·安南 Francis Annan / L.H. Adams / Karol Griffiths / Tim Jenkin
◎主  演 丹尼尔·雷德克里夫 Daniel Radcliffe
       伊恩·哈特 Ian Hart
       丹尼尔·韦伯 Daniel Webber
       内森·佩吉 Nathan Page
       斯蒂芬·亨特 Stephen Hunter
       马克·伦纳德·温特 Mark Leonard Winter
       珍妮特·克罗宁 Jeanette Cronin
       Ratidzo Mambo
       Martin Ayles
       David Wilson
       Adam Ovadia
       PJ Oaten
       Lliam Amor
       Paul Harvey
       Lenny Firth
◎标  签 越狱 | 真实事件改编 | 犯罪 | 丹尼尔·雷德克里夫 | 剧情 | 英国 | 2020 | 惊悚
◎简  介  
  电影根据真实事件改编。丹尼尔将扮演蒂姆·詹金,是两名南非白人中的一员。他们1978年因为参加非洲人民大会秘密反种族隔离行动而被视为恐怖分子并入狱,并策划越狱活动。
Video
ID                                       : 1
Format                                   : AVC
Format/Info                              : Advanced Video Codec
Format profile                           : [email protected]
Format settings                          : CABAC / 5 Ref Frames
Format settings, CABAC                   : Yes
Format settings, Reference frames        : 5 frames
Codec ID                                 : V_MPEG4/ISO/AVC
Duration                                 : 1 h 45 min
Bit rate                                 : 10.3 Mb/s
Width                                    : 1 920 pixels
Height                                   : 808 pixels
Display aspect ratio                     : 2.40:1
Frame rate mode                          : Constant
Frame rate                               : 23.976 (24000/1001/189150) FPS
Color space                              : YUV
Chroma subsampling                       : 4:2:0
Bit depth                                : 8 bits
Scan type                                : Progressive
Bits/(Pixel*Frame)                       : 0.277
Stream size                              : 7.63 GiB (87%)
Writing library                          : x264 core 159 r2991 1771b55
Encoding settings                        : cabac=1 / ref=5 / deblock=1:-3:-3 / analyse=0x3:0x113 / me=umh / subme=8 / psy=1 / psy_rd=1.00:0.00 / mixed_ref=1 / me_range=16 / chroma_me=1 / trellis=1 / 8x8dct=1 / cqm=0 / deadzone=21,11 / fast_pskip=1 / chroma_qp_offset=-2 / threads=25 / lookahead_threads=4 / sliced_threads=0 / nr=0 / decimate=1 / interlaced=0 / bluray_compat=0 / constrained_intra=0 / bframes=3 / b_pyramid=2 / b_adapt=1 / b_bias=0 / direct=3 / weightb=1 / open_gop=0 / weightp=2 / keyint=250 / keyint_min=23 / scenecut=40 / intra_refresh=0 / rc_lookahead=50 / rc=2pass / mbtree=1 / bitrate=10304 / ratetol=1.0 / qcomp=0.60 / qpmin=0 / qpmax=69 / qpstep=4 / cplxblur=20.0 / qblur=0.5 / ip_ratio=1.40 / aq=1:1.00
Language                                 : English
Default                                  : Yes
Forced                                   : No
Audio
ID                                       : 2
Format                                   : DTS
Format/Info                              : Digital Theater Systems
Codec ID                                 : A_DTS
Duration                                 : 1 h 45 min
Bit rate mode                            : Constant
Bit rate                                 : 1 509 kb/s
Channel(s)                               : 6 channels
Channel layout                           : C L R Ls Rs LFE
Sampling rate                            : 48.0 kHz
Frame rate                               : 93.750 FPS (512 SPF)
Bit depth                                : 24 bits
Compression mode                         : Lossy
Stream size                              : 1.12 GiB (13%)
Language                                 : English
Default                                  : Yes
Forced                                   : No
Text
ID                                       : 3
Format                                   : UTF-8
Codec ID                                 : S_TEXT/UTF8
Codec ID/Info                            : UTF-8 Plain Text
Duration                                 : 1 min 28 s
Bit rate                                 : 55 b/s
Count of elements                        : 27
Stream size                              : 616 Bytes (0%)
Title                                    : English Forced
Language                                 : English
Default                                  : No
Forced                                   : Yes



回复

使用道具 举报

您需要登录后才可以回帖 登录 | 立即注册

本版积分规则

Archiver|手机版|小黑屋|有推

网站地图

GMT+8, 2021-10-25 12:15 , Processed in 0.024697 second(s), 18 queries .

快速回复 返回顶部 返回列表