请选择 进入手机版 | 继续访问电脑版

有推-微信公众号推广-网络推广-论坛推广

 找回密码
 立即注册
搜索
查看: 26|回复: 0

死亡之夜 Night.Of.Death.1980.720p.BluRay.x264-CREEPSHOW 4.36GB

[复制链接]

3万

主题

3万

帖子

9万

积分

超级版主

Rank: 8Rank: 8

积分
98448
发表于 2020-12-7 12:12:16 | 显示全部楼层 |阅读模式
帖子完整标题:死亡之夜 Night.Of.Death.1980.720p.BluRay.x264-CREEPSHOW 4.36GB

◎译  名 死亡之夜 / night of death
◎片  名 La nuit de la mort!
◎年  代 1980
◎产  地 法国
◎类  别 恐怖 / 奇幻
◎语  言 法语
◎上映日期 1980
◎IMDb评分  6.2/10 from 317 users
◎IMDb链接  https://www.imdb.com/title/tt0293467
◎豆瓣评分 0/10 from 0 users
◎豆瓣链接 https://movie.douban.com/subject/3825327/
◎导  演 Rapha?l Delpard
◎主  演 Isabelle Goguey
◎标  签 血腥 | 悬疑 | 恐怖 | tik金种推荐 | Horror
◎简  介  
  暂无相关剧情介绍
Video
ID                                       : 1
Format                                   : AVC
Format/Info                              : Advanced Video Codec
Format profile                           : [email protected]
Format settings                          : CABAC / 5 Ref Frames
Format settings, CABAC                   : Yes
Format settings, Reference frames        : 5 frames
Codec ID                                 : V_MPEG4/ISO/AVC
Duration                                 : 1 h 34 min
Bit rate                                 : 5 966 kb/s
Width                                    : 1 200 pixels
Height                                   : 720 pixels
Display aspect ratio                     : 5:3
Frame rate mode                          : Constant
Frame rate                               : 23.976 (24000/1001/189150) FPS
Color space                              : YUV
Chroma subsampling                       : 4:2:0
Bit depth                                : 8 bits
Scan type                                : Progressive
Bits/(Pixel*Frame)                       : 0.288
Stream size                              : 3.94 GiB (90%)
Writing library                          : x264 core 159 r2991 1771b55
Encoding settings                        : cabac=1 / ref=5 / deblock=1:-2:-2 / analyse=0x3:0x133 / me=umh / subme=9 / psy=1 / psy_rd=1.00:0.00 / mixed_ref=1 / me_range=16 / chroma_me=1 / trellis=2 / 8x8dct=1 / cqm=0 / deadzone=21,11 / fast_pskip=0 / chroma_qp_offset=-2 / threads=12 / lookahead_threads=1 / sliced_threads=0 / nr=0 / decimate=1 / interlaced=0 / bluray_compat=0 / constrained_intra=0 / bframes=3 / b_pyramid=2 / b_adapt=2 / b_bias=0 / direct=3 / weightb=1 / open_gop=0 / weightp=2 / keyint=240 / keyint_min=23 / scenecut=40 / intra_refresh=0 / rc_lookahead=50 / rc=2pass / mbtree=1 / bitrate=5966 / ratetol=1.0 / qcomp=0.60 / qpmin=0 / qpmax=69 / qpstep=4 / cplxblur=20.0 / qblur=0.5 / vbv_maxrate=62500 / vbv_bufsize=78125 / nal_hrd=none / filler=0 / ip_ratio=1.40 / aq=1:0.70
Default                                  : Yes
Forced                                   : No
Audio
ID                                       : 2
Format                                   : AC-3
Format/Info                              : Audio Coding 3
Commercial name                          : Dolby Digital
Codec ID                                 : A_AC3
Duration                                 : 1 h 34 min
Bit rate mode                            : Constant
Bit rate                                 : 640 kb/s
Channel(s)                               : 2 channels
Channel layout                           : L R
Sampling rate                            : 48.0 kHz
Frame rate                               : 31.250 FPS (1536 SPF)
Bit depth                                : 16 bits
Compression mode                         : Lossy
Stream size                              : 433 MiB (10%)
Language                                 : French
Service kind                             : Complete Main
Default                                  : Yes
Forced                                   : No
Text
ID                                       : 3
Format                                   : UTF-8
Codec ID                                 : S_TEXT/UTF8
Codec ID/Info                            : UTF-8 Plain Text
Duration                                 : 1 h 32 min
Bit rate                                 : 32 b/s
Count of elements                        : 646
Stream size                              : 22.2 KiB (0%)
Language                                 : English
Default                                  : Yes
Forced                                   : No
Menu
00:00:00.000                             : en:Chapter 01
00:01:41.560                             : en:Chapter 02
00:05:31.665                             : en:Chapter 03
00:11:32.233                             : en:Chapter 04
00:17:06.108                             : en:Chapter 05
00:26:12.821                             : en:Chapter 06
00:32:20.355                             : en:Chapter 07
00:37:49.058                             : en:Chapter 08
00:44:21.701                             : en:Chapter 09
00:47:49.784                             : en:Chapter 10
00:52:51.835                             : en:Chapter 11
01:00:49.312                             : en:Chapter 12
01:13:27.403                             : en:Chapter 13
01:19:33.519                             : en:Chapter 14
01:22:24.022                             : en:Chapter 15
01:31:29.651                             : en:Chapter 16



回复

使用道具 举报

您需要登录后才可以回帖 登录 | 立即注册

本版积分规则

Archiver|手机版|小黑屋|有推

网站地图

GMT+8, 2021-10-25 11:26 , Processed in 0.023481 second(s), 18 queries .

快速回复 返回顶部 返回列表